#TITLE:Rebel Souls by young_editer@hotmail.com;
#ARTIST:Luciferion;
#FILE:Luciferion (Rebel Souls).mp3;
#BPM:129.600;
#GAP:240;
#SAMPLESTART:99.720;
#SAMPLELENGTH:12.000;
#CDTITLE:Nepex-Chart.bmp;
#CHANGEBPM:124.000=210.000,252.000=105.000,260.000=210.000,372.000=105.000,380.000=127.000,528.000=120.000,532.000=210.000,536.000=210.000,644.000=117.000,652.000=115.000,668.000=129.000,712.000=126.500,744.000=126.000,792.000=125.600,796.000=127.000,868.000=126.660,1832.000=190.000,1928.000=126.300,1992.000=190.000,2088.000=125.000,2200.000=127.000,2296.000=127.100,2332.000=127.200,2352.000=127.400,2364.000=127.700,2376.000=127.760,2384.000=127.800,2400.000=128.000,2424.000=127.500,2460.000=127.140,2496.000=127.300,2544.000=210.000,2672.000=105.000,2680.000=210.000,2792.000=105.000,2800.000=129.960,2810.667=194.940,2822.667=136.100,2830.667=135.100,2842.667=126.000;
#SINGLE:MANIAC:14:
[000000802620804640208680]
`B!B000000000000000<BA!A>00000000000A0009!90000000000090007!7000000000000000<8B>0000000200000006000000000000000400000000000000020000000800000006000000000000000200000000000000080000000400000008000000040000000'
[802626206860402820604840]
`A!A000000000000000<AB!B>00000000000B0007!70000000000070001!1000000000000000<81>0000000600000008000000000000000200000000000000060000000400000008000000000000000600000000000000040000000200000004000000020000000'
[406868608480206460802420]
`B!B000000000000000<BA!A>00000000000A0001!10000000000010003!3000000000000000<61>0000000800000004000000000000000600000000000000080000000200000004000000000000000800000000000000020000000600000002000000060000000'
[208484802620804640208680]
`B!B000000000000000<BA!A>00000000000A0009!90000000000090007!7000000000000000<8B>0000000200000006000000000000000400000000000000020000000800000006000000000000000400000000000600000000000200000000000000000000000'
{200080004000000040006000200000009!90000000000000097000000000000000}
(20704030827060A0)
49276A67
(20B0209028B08030)
49276729
(20B0803048304090)
272B834A
(6070209046264826)
{2000800040002000B!B00000000000000B80000000300000008000000010000000}
(4810629020B080B0)
29438183
(4610829020702090)
434A6767
(261084A0607060A0)
49276A43
`8000000000004000000000008000000000002000000000009000000000000000000000001000000000002000000000000000000000009000000000008000000000000000000000001!100000000000000060000000000000008000000000000100'
`3!300000000000000040000000000000008000000000000300400000008000000020000000800000004000000020000000400000006000000020000000800000004000000060000000200000008000000040000000800000006000000080000000'
[486826286828424282862868]
[28428610A090462842462868]
[284246284826482846282868]
[286828428682B03090482842]
[462846284868486826286828]
[424282862868284286107030]
[628268648264826242624284]
[824282686828248242826824]
`900000000000000070000000000000003000000000000000700000000000000000000000000000000000000000000000800000000000000000000000B00000000000000000000000200000000000800000000000200000000000000000000000'
(84806430409020B0)
(8030409020B02840)
(4820267020904030)
(80B0801080408240)
(428082B020904030)
(8010607020B02680)
`800000000000600000000000400000000000800000000000300000000000000000000000000000007000000000000000400000000000000000000000000000009000000000000000600000008000000020000000800000004000000020000000'
[462846284868486826286828]
[42428286286828428610A090]
[462842462868284246284826]
[482846282868286828428682]
[B03090482842462846284868]
[486826286828424282862868]
[284286107030628268648264]
[826242624284824282686828]
[248242826824907030702080]
[B!B028<61>0604080206460204020]
[802620604020806260703090]
[10B0A0B02620804020806460]
`2000000000000000800000000000000060000000000000007!7000000000000000200000006000000020000000000007009!900000000000000040000000200000004000000000000900A!A00000000000000060000000400000006000000040000A00'
[628428602820804060206860]
[208040208280602080608420]
[806020804620804020806420]
[806020804640802060802420]
[802060408280206040804240]
[802060802820408020402680]
[204080206480206080204680]
[204080206460208040208680]
`200000000000000080000000000000004000000000000000A!A00000000000000000000000000000000000000000200800300000000000000080000000000000004000000000000000200000000000000080000000000000002000000000000000'
[806020804060208020806080]
[208020804020406020802080]
[602080208040204060208040]
`200000000000000040000000000000006000000000000000200000000000000080000000000000002000000000000000800020008000000040000000000000002000000000000000600000000000000020000000000000004000000000000000'
[206020402080608040806080]
[208060208020804060208020]
[806080208060802080402040]
`200000000000000040000000000000008000000000000000200000000000000080000000000000004000000000000000200080002000000060000000000000002000000000000000800000000000000060000000000000002000000000000000'
[806080208060402080604020]
[806040208060802040608020]
[406080208040204060208040]
`600000000000000020000000000000008000000000000000400000000000000060000000000000002000000000000000800040008000000020000000000000008000000000000000600000000000000080000000000000002000000000000000'
[804020406020804080208040]
[208020408020402080402080]
[204080208060802060802080]
[626080646020804640602080]
[406260802080604240602080]
[4064602080402!200000A00040]
[848282868282842424286862]
[8!804060A08040A04640802080]
[406260802080602820804020]
[602624826824802620600040]
[682428600000428242868246]
[8286824!400010602820806020]
[8046406!6080B0602620804060]
[208282848482682428642868]
[246824286428682468242864]
[286824682428626262626262]
[648484848484846464646464]
[8282828282828!802060728242]
[824282428242868286828682]
[8682868286828!862626262626]
[264646464646262646462624]
[242424242626A62842424828]
[284628424628682842426242]
[628684868262426286282846]
[282828424628286828682842]
[462828428248242842828628]
[284628642864282842462828]
[684242628628604840208060]
[208480206020804640208060]
[408480206020804620804020]
[802820406020804640208060]
[408280406020802620604020]
[806460208040208680208060]
[208480206020604620602080]
[608280402040802620608020]
[806420802080604840804640]
[60262070A0B0208480206460]
[208480309070604840804640]
[60262070A0B0208480206460]
[208480484840300900B00700]
A39B7A39
B739BA7A
(B0802820B0A090B0)
7A739B7A
B939B7A7
`300000000000000000000000800000000000000000000000400000000000600000000000200000000000000000000000600000000000000040000000800000004000000000000000800000000000000040000000600000004000000000000000'
[60262070A0B0208480206460]
[208480309070604840804640]
[60262070A0B0208480206460]
[208480484840300900B00700]
A39B7A39
B739BA7A
(B0802820B0A090B0)
7A739B7A
B939B7A7
(308046207!70000000)
`000000000000000000000000000000000000000000000700300000000000000070000000000000009000000000000000A!A00000000000000000000000000000000000000000000000<AB!B>00000000000000000000000000000000000000000000000'
{000000000000000B3!300000000000000000000000000000000000000000000000}
[<19>0A0B03!300000<19>03090700000]
`7!700000000000000000000000000000000000000000000000000000000000000000000000000000000000000000000000000000000000000000000000000000000000000000000700900000000000000090000000000000009000000000000000'
`B!B00000000000000000000000000000000000000000000000<BA!A>00000000000000000000000000000000000000000000A0070000000000000003000000000000000A0000000000000003!300000000000000000000000000000000000000000000000'
[000000000000<19>090703!300000]
[<19>0A070308040602080B02040]
[602080108060802080B08020]
[804020706020804020702040]
[602060106080608060106040]
[602080308040804080308020]
[804060706020602060706080]
[604020B02080208020706020]
[804020406020806040308060]
[402080304020802080B02040]
[602080B02080604020706080]
[208060108020804020B08020]
[804060108060802080B08060]
[804080308040802060108040]
[802060108040204020902080]
[602820604020802620804640]
`200000000000000080000000600000008000000000000000B!B000000000000000<BA!A>00000000000A0009!90000000000090007!7000000000000000<8B>0000000200000006000000000000000400000000000000020000000800000006000000000000000'
[208484802626206860402820]
`600000000000000040000000800000004000000000000000A!A000000000000000<AB!B>00000000000B0007!70000000000070001!1000000000000000<81>0000000600000008000000000000000200000000000000060000000400000008000000000000000'
[604242406868608480206460]
`800000000000000020000000400000002000000000000000B!B000000000000000<BA!A>00000000000A0001!10000000000010003!3000000000000000<61>0000000800000004000000000000000600000000000000080000000200000004000000000000000'
[802626208484802620804640]
`200000000000000080000000600000008000000000000000B!B000000000000000<BA!A>00000000000A0009!90000000000090007!7000000000000000<8B>0000000200000006000000000000000400000000000000020000000800000006000000000000000'
{4000600020000000200080004000000040006000200000009!9000000000000009}
(7000207040308270)
6A49276A
(607020B0209028B0)
83492767
(209020B080304830)
49272B83
(40A0607020904626)
{40008000200060002000800040002000B!B00000000000000B8000000030000000}
(80104810629020B0)
8B294381
(8030461082902070)
29434A67
(6070261084A06070)
6A49276A
(4030848290120980)
`1!100000000000000060000000000000008000000000000020<43!3>00000000000000040000000000000008000000000000000<61>00000006000000020000000800000004000000000002000000000004000000000002000000000004000000000008000'
`000000002000000000008000000000004000000000006000000000002000000000008000000000004000000020000000400000002000000080000000200000008000000060000000200000008000000060000000800000002000000080000000'
[428642864286284246A07030]
[424628482648284628286828]
[682842868246824648284246]
[A03010286848682628682842]
[428286286828428642864262]
[826864A0B070482482648284]
[628286828682842868246824]
[648284246284307010602080]
[B!B000000000000000B0000000]
;
